• 欢迎访问往前方博客,推荐使用最新版火狐浏览器和Chrome浏览器访问本网站,欢迎加入往前方 QQ群
  • 百度口碑求点赞啊啊啊啊啊啊啊啊啊啊啊啊啊啊啊啊啊啊啊啊啊啊啊啊啊啊http://koubei.baidu.com/s/www.wangqianfang.com
  • 新版往前方影院 原藏藏影院重新开启http://movie.wangqianfang.com/欢迎围观
  • 分享IT江湖那些趣事,那些牛人传说,那些稀奇古怪的网站,那些爱不释手的应用软件!如果您觉得本站非常有看点,那么赶紧使用Ctrl+D 收藏往前方吧
  • 往前方的推荐:每日更新.帮助广大网友各位小伙伴买到更有性价比商品往前方力荐!http://mai.ziyuandi.cn 戳这里跟着资源帝挖白菜,从此快递收不停!

【 精品资源下载】[mkv/1.84G]里約大冒險2/奇鸚嘉年華2/里約2/Rio 2 1280p+720p

资源推荐 admin 2426次浏览 已收录 0个评论 扫描二维码

 [mkv/1.84G]里約大冒險2/奇鸚嘉年華2/里約2/Rio 2 1280p+720p

【 精品资源下载】[mkv/1.84G]里約大冒險2/奇鸚嘉年華2/里約2/Rio 2 1280p+720p

【 精品资源下载】[mkv/1.84G]里約大冒險2/奇鸚嘉年華2/里約2/Rio 2 1280p+720p

 

 

【影片原名】Rio 2  

: X. x( W3 S# O2 I. s6 a+ L
【中文译名】里约大冒险2/奇鹦嘉年华2/里约2  
【出品公司】二十世纪福斯公司Twentieth Century Fox Animation  
【出品年代】2014 年  % {& O) @! E4 p  d! g( }1 ?5 H
【上映日期】2014年4月11日 中国  
【影片级别】Argentina:Atp | Canada:G (British Columbia) | Finland:K-7 | France:U | Germany:o.Al.  
【官方网站】http://www.riomovies.com/  8 E. `1 _) ]’ N8 q! _
【IMDB链接】http://www.imdb.com/title/tt2357291/  
【IMDB评分】6.8/10 (7,786 votes)    {5 f- y0 B& ~% B
【国  家】美国  7 _% R5 j) d% e+ g0 C
【类  别】动画/冒险/喜剧/家庭  
【导  演】卡洛斯·沙尔丹哈Carlos Saldanha  ( `: {, Z# F- W+ b2 }5 y4 ]
【主  演】Jake T. Austin … Fernando (voice)  / ‘ ]’ E3 d9 Y
      Carlinhos Brown … Audition Bird (voice)  – ^6 E+ ^. j- k8 [9 @5 P
      Kristin Chenoweth … Gabi (voice)  
      Jemaine Clement … Nigel (voice)  9 W, x2 ~5 l, a# P  a5 v4 B” `
      Jim Conroy … Capoeira Turtle (voice)  ” S) B5 ?’ `  C2 x; B
      Rachel Crow … Carla (voice)  
      Bernardo de Paula … Carnival Barker / Blue Sentry (voice)  $ W+ l% w’ z4 a
      Nola Donkin … Opera Bird (voice)  
       杰西·艾森柏格Jesse Eisenberg … Blu (voice)  
      Miguel Ferrer … Big Boss (voice)  
      Jamie Foxx … Nico (voice)  
      Pierce Gagnon … Tiago (voice)  
      Andy Garcia … Eduardo (voice)  
      Jeffrey Garcia … Spoonbill / Perl (voice)  
      Bebel Gilberto … Eva (voice)  


6 k) F. J  F  a& C& C8 e” ^$ y5 T
! l1 K0 x+ P7 [) Z’ S



* O! O! _# H1 j, d# Q! |, v
【内容简介】  
2 M$ [; K) n$ r9 }
; x( [0 C1 F5 D
在《里约大冒险2》中,布鲁、珠儿以及他们的家人在城市里过着舒服的日子。他们的小宝贝包括了有碧娅(由阿曼德拉·斯坦伯格配音),她终日埋首书中,跟她爸一样喜欢高谈阔论;最年幼的提亚戈(由皮尔斯·加格农配音),他总是准备好要冒险,特别喜欢把东西摧毁;最年长的卡拉(由歌手兼喜剧演员的蕾切尔·克罗配音),正值易怒的青春期,希望从保护她的家人获得一点自己的空间,好发挥音乐方面的长才。     
# |5 r% a3 o, f8 m. V! M7 X) @
4 ^6 ^. A” X- N% ?8 }+ N* @5 S6 r
  由于珠儿决定让小孩们学习如何当真正的鸟,她坚持全家搬到亚马逊丛林。布鲁跟死党们说他的计划,但尼科、佩德罗与路易兹却警告他在野外将会遇到的许许多多危险。只有总是乐观的拉斐尔鼓励布鲁,提醒他“有个快乐的老婆,才会有快乐的人生!”      * k% P: ]. i- K6 _. c; F

% Z! ^9 o3 N9 n1 S
一家人抵达后,布鲁与珠儿拜会当地居民,包括爱德华多(由安迪·加西亚配音),一位影响力很大的长老,有许多的坚持与规则,他成为布鲁生活上一个搞笑的阻碍;咪咪(由丽塔·莫雷诺配音),爱德华多温暖但却莽撞的妹妹,她总是有话直说,即便是面对她德高望重的哥哥也是如此;罗伯特(由歌手兼制作人的布鲁诺配音),一只完美典型的野生鸟,迷倒了身边的所有人,让布鲁产生了危机意识。就在布鲁试着要融入的同时,他也担心会失去珠儿与孩子们,怕他们敌不过野外的魅力     0 w8 q& z/ Y6 g’ d: x/ `! Y- ^8 k
9 t/ S8 d6 X5 N0 Y0 d2 W
8 S’ j# L3 ^+ a, T9 C
  在此同时,奸诈的白鹦鹉乃吉尔正在策画对布鲁的复仇,他的助手是一只可爱,而且超级忠心的毒蛙呱碧儿(由克里斯汀·肯诺恩斯配音),它身材虽小,心却邪恶的可怕。  ! k2 I( R5 m6 y) y. }% K

3 S$ o; R’ |, d; ^2 s- X  |
幕后制作  ( ]3 t, z” w5 _8 W: x* p

$ u* R$ p$ M. Z+ U
在第一集《里约大冒险》中,音乐获得了众多观众好评,导演的卡洛斯·沙尔丹哈在谈到《里约大冒险》的成功时引以为豪:“音乐和歌舞是我的故乡里约这座城市的灵魂之一,《里约大冒险2》中的依然会加强这些元素,特别是音乐方面,我们有幸邀请到更多顶级音乐人加盟我们的团队。”火星人布鲁诺?马尔斯、美国天才女歌手奈儿·梦奈、获得奥斯卡影帝的格莱美歌王杰米·福克斯以及美国最当红的说唱组合黑眼豆豆团长Will.I.Am都将在片中开唱。而我们喜爱的《社交网络》杰西?艾森伯格、《悲惨世界》安妮?海瑟薇依然会给布鲁和珠儿配音。据悉,火星人布鲁诺·马尔斯配音的罗伯特,是安妮·海瑟薇配音的珠儿的青梅竹马,他是布鲁的情敌,三人将上演比第一集还搞笑的爱情戏码。  


9 K& p& W8 _6 n5 O

关于《里约大冒险2》你应该知道的10件事  0 W& n8 f5 a  B; Q9 m2 `2 O1 x- O7 x
1影片的北美版预告海报中,大约150只斯皮克斯金刚鹦鹉的身体组成了一个“2”字,这个数字也是世界上已知现存这一种类鹦鹉的全部数量。  
2本片是蓝天工作室继《冰河世纪》之后第二部被制作成系列影片的动画片。  
3影片歌手配唱团阵容豪华,在前一部奥斯卡影帝兼格莱美歌王杰米·福克斯、格莱美最佳组合黑眼豆豆团长Will.I.a m的基础上,又加入了当红格莱美歌王布鲁诺·马尔斯、新晋唱作女歌手加奈儿·梦奈等。  
4《里约大冒险》第一和二部的编剧唐·莱默尔在2012年因癌症病逝,年仅51岁。本片是他的最后一部作品。莱默尔担任编剧的其他影片包括《绝地奶霸》、《圣诞老人2》、《冲浪季节》等。  
5为“碧雅”配音的黑人童星阿曼德拉·斯坦伯格生于1998年,之前她曾在《饥饿游戏1》中出演善良的Rue一角,给人留下深刻的印象。  1 O! G8 Q9 j# y2 e” u
6为“卡拉”配音的蕾切尔·克罗是首次参与电影。2011年,13岁的她参加第一届美版《x-factor》歌手选手入围五强而一举成名。  
7布鲁的情敌罗伯特这个角色,剧组考虑过众多配音人选,但看过布鲁诺在《周六夜现场》(SNL)的表现后,就决定是他了。“我看了布鲁诺·马尔斯在SNL的片段,觉得他真的很有趣”,导演沙尔丹哈回忆道。  ! t( k” Y% d: |$ `! T
8罗伯特的角色原本是一个典型的“猛男”,男子气概爆棚,令布鲁感到很自卑。这个角色后来选定歌手布鲁诺·马尔斯出演之后做出了修改,让它变得更能歌善舞。  
9片中拉斐尔的夫人伊娃被描述成一位极其糟糕的歌手,但为她配音的贝贝儿·吉尔贝托现实中唱功很不错。  8 s, X( D( h4 }4 q’ }” Q1 z5 D
10当年艾森伯格第一次给布鲁配音的时候,还没结束《社交网络》的拍摄。因此布鲁说话的语速略快,是受了“马克·扎克伯格”的影响,不过他在《里约2》中的语速正常多了。  


影片获得混合评价,烂番茄新鲜度为49%,Metacritic上33家媒体综评50分。  
1 T0 A5 P  {# A, `+ Q* R
. ~9 V! Z$ x0 t; E9 M
好评有:“一部相当出色的巴西音乐剧,一流的人声出演和蒙太奇剪辑。本片与第一部保持着同等水准,同时满足儿童层面的喧闹与城人层面的幽默”,“出色的音乐和舞蹈编排与慵懒的剧情推进形成反差,我相信在观影中你一定希望还不如让所有角色都闭嘴,直接开始舞蹈算了”,“它并不仅仅是一部亚马逊探险,它还拥有足够多的愚蠢音乐和动物形象来欢愉观众”;差评有:“扑面而来的艳丽色彩和眼花缭乱的动感画面令人欣喜,但长时间的演绎终究会让观众筋疲力尽”,“总体而言并没有太大的进步,除了歌曲和画面几乎没有继承前作的任何闪光点”。  0 A2 I’ E: k’ L8 f) {
      Format : Matroska 7 `/ I$ P- A/ O0 J; ?
      File size : 1.84 GiB 
      Duration : 1h 32mn 
      Overall bit rate : 2 851 Kbps 
      Encoded date : UTC 2010-02-22 21:41:31 
      Writing application : mkvmerge v5.9.0 (‘On The Loose’) built on Dec  9 2012 15:37:01 * z8 c! g/ s! ]( `” k
      Writing library : libebml v1.3.0 + libmatroska v1.4.0 
   Video #1 , v+ @& Y! l0 O3 h
      ID : 1 7 b( ]” w/ x: d) t* X) b
      Format : AVC 
      Format/Info : Advanced Video Codec 
      Format profile : High@L3.1 
      Format settings, CABAC : Yes 
      Format settings, ReFrames : 4 frames ” U3 [2 w9 W+ ?1 s’ V’ s
      Muxing mode : Container profile=Unknown@3.1 $ B/ F% ]; Y( o+ V# a
      Codec ID : V_MPEG4/ISO/AVC ‘ t+ b- I) C4 h7 `% C; d0 V
      Duration : 1h 32mn 
      Bit rate : 2 602 Kbps 
      Nominal bit rate : 2 650 Kbps – B, x( S8 I+ y* q( Q7 o/ }
      Width : 1 280 pixels ! E3 `1 }) A3 l
      Height : 528 pixels ( J3 ]6 4 u$ t8 ~) u
      Display aspect ratio : 2.40:1 $ N- N: s/ W” u( @9 n( t; X
      Frame rate : 25.000 fps 
      Resolution : 8 bits % U; l7 ~# n# A. w
      Colorimetry : 4:2:0   X4 s1 C2 V” b, d( z* N
      Scan type : Progressive – N9 w0 s” P. T( q$ f
      Bits/(Pixel*Frame) : 0.154 
      Stream size : 1.68 GiB (91%) * F. P3 _( V# D
      Writing library : x264 core 116 r2074 2641b9e + J. g2 ^: C- ^: c, l. [6 B
       
   Audio #2 6 {2 s  N6 W’ J+ S) I7 i7 T
      ID : 2 
      Format : AC-3 
      Format/Info : Audio Coding 3 9 s9 z- k% f9 A9 Q! b
      Codec ID : A_AC3 
      Duration : 1h 32mn 
      Bit rate mode : Constant 
      Bit rate : 192 Kbps 
      Channel(s) : 2 channels 2 J2 ^# {! L7 _/ I5 ^, R
      Channel positions : L R $ X$ M& E$ A/ F: p
      Sampling rate : 44.1 KHz 
      Stream size : 127 MiB (7%), e( b3 V’ g) B  v
电影截图: , D”

【 精品资源下载】[mkv/1.84G]里約大冒險2/奇鸚嘉年華2/里約2/Rio 2 1280p+720p

【 精品资源下载】[mkv/1.84G]里約大冒險2/奇鸚嘉年華2/里約2/Rio 2 1280p+720p

百度网盘下载:http://pan.baidu.com/s/1GPEma

 

l+ `* y* `2 n: K


往前方 , 版权所有丨如未注明 , 均为原创丨本网站采用BY-NC-SA协议进行授权 , 转载请注明【 精品资源下载】[mkv/1.84G]里約大冒險2/奇鸚嘉年華2/里約2/Rio 2 1280p+720p

历史上的今天:

喜欢 (0)
[fmfbth@qq.com]
分享 (0)
发表我的评论
取消评论

表情 贴图 加粗 删除线 居中 斜体

Hi,您需要填写昵称和邮箱!

  • 昵称 (必填)
  • 邮箱 (必填)
  • 网址